49
Seeders
70
Leechers
700.00 MB
Size
uploaded by
jenayres
Edit this file
Secure download @BtGuard Torrent file mirrors @Zoink.it - @Fenopy Resources Search Google - Torrentz - IsoHunt
Shadowhunters.Citta.Di.Ossa.2013.iTALiAN.MD.TELESYNC.x264-RAVERS.avi torrent Shadowhunters.Citta.Di.Ossa.2013.iTALiAN.MD.TELESYNC.x264-RAVERS.avi torrent Shadowhunters.Citta.Di.Ossa.2013.iTALiAN.MD.TELESYNC.x264-RAVERS.avi torrent
  • Play
  • Shadowhunters.Citta.Di.Ossa.2013.iTALiAN.MD.TELESYNC.x264-RAVERS.avi (Audio Preview)
These previews were generated automatically. please contact us to report abuse.

Files

Shadowhunters.Citta.Di.Ossa.2013.iTALiAN.MD.TELESYNC.x264-RAVERS.avi torrent (size: 700.000 MB)
Shadowhunters.Citta.Di.Ossa.2013.iTALiAN.MD.TELESYNC.x264-RAVERS.avi
video
700.00 MB
.avi

Shadowhunters.Citta.Di.Ossa.2013.iTALiAN.MD.TELESYNC.x264-RAVERS

Torrent preview image

Torrent preview image

USCITA CINEMA :28/08/2013

GENERE :Azione, Fantasy, Avventura

REGIA :Harald Zwart

SCENEGGIATURA :I. Marlene King, Jessica Postigo

ATTORI:

Lily Collins, Jamie Campbell Bower, Lena Headey, Jonathan Rhys Meyers, Robert Sheehan, Kevin Zegers, Jared Harris, Kevin Durand, Jemima West, Godfrey Gao, CCH Pounder, Robert Maillet

Ruoli ed Interpreti

FOTOGRAFIA :Geir Hartly Andreassen

PRODUZIONE :Constantin Film Produktion, Sony Pictures Entertainment, Unique Features

DISTRIBUZIONE :Eagle Pictures

PAESE :USA 2013

DURATA :130 Min

FORMATO :Colore

Sito Italiano

SOGGETTO:

Basato sull'omonimo libro di Cassandra Clare, il primo di una saga best-seller, per settimane al primo posto nella classifica del New York Times delle serie di fantasy per giovani adulti.

Torrent preview image

Trama del film Shadowhunters - Città di ossa:

Ambientato nella New York di oggi, Shadowhunters - Città di ossa ha come protagonista Clary Fray (Lily Collins),

un'adolescente in apparenza come tante altre, che scopre di essere la discendente di una stirpe di Shadowhunters,

una cellula segreta di semi-angeli guerrieri, impegnati in un'antica battaglia tesa a proteggere il nostro mondo

dai demoni. Dopo la scomparsa della madre, Clary si unisce a un gruppo di Shadowhunters, che le fanno conoscere

una diversa e pericolosa New York, infestata da demoni, stregoni, vampiri, licantropi e altre terribili creature.

Torrent preview image

Torrent preview image

Torrent preview image

Torrent preview image

Torrent preview image

Torrent preview image

Torrent preview image

Info sul file

Nome                        Shadowhunters.Citta.Di.Ossa.2013.iTALiAN.MD.TELESYNC.x264-RAVERS

Data                        SAT, 31 Aug 2013 00:14:00 +0200

Dimensione                  700 Mo

Nota                        L'analisi non è completa

Format :AVI

Format/Info :Audio Video Interleave

File size :820 MiB

Duration :2h 1mn

Overall bit rate :942 Kbps

Video

ID :0

Format :MPEG-4 Visual

Format profile :Advanced Simple@L5

Format settings, BVOP :2

Format settings, QPel :No

Format settings, GMC :No warppoints

Format settings, Matrix :Default (H.263)

Muxing mode :Packed bitstream

Codec ID :XVID

Codec ID/Hint :XviD

Duration :2h 1mn

Bit rate :803 Kbps

Width :720 pixels

Height :304 pixels

Display aspect ratio :2.35:1

Frame rate :29.017 fps

Color space :YUV

Chroma subsampling :4:2:0

Bit depth :8 bits

Scan type :Progressive

Compression mode :Lossy

Bits/(Pixel*Frame) :0.126

Stream size :699 MiB (85%)

Writing library :XviD 64

Audio

ID :1

Format :MPEG Audio

Format version :Version 1

Format profile :Layer 3

Codec ID :55

Codec ID/Hint :MP3

Duration :2h 1mn

Bit rate mode :Constant

Bit rate :128 Kbps

Channel count :2 channels

Sampling rate :44.1 KHz

Compression mode :Lossy

Stream size :111 MiB (14%)

Alignment :Split accross interleaves

Interleave, duration :34 ms (1.00 video frame)

SOURCE WAS A FELLOW PIRATE THANKS AND RESPECT................

GREETZ...TO k3lly258.....HOPE...SaM...Acesan8s....oziman...Srkfan....

worldwide7477....

Post a new comment

  •   

User comments (3)

Guest  7 months ago

fake

REPLY
  • 0
Guest  8 months ago

Fake!!!!!!!!!!!

REPLY
  • 1
Guest  7 months ago

fake